Various Artists - Marc Blitzstein: Musical Theatre PremièresVarious Artists - Marc Blitzstein: Musical Theatre Premières Cuatro Zero Ocho - SinglesCuatro Zero Ocho - Singles The Weeknd - Echoes of SilenceThe Weeknd - Echoes of Silence Sara Montiel - Tápame, TápameSara Montiel - Tápame, Tápame Friendben - BottomsFriendben - Bottoms Adrianne Archie - Warm WinterAdrianne Archie - Warm Winter Space Case - HeavenSpace Case - Heaven Brown - Turn the House Lights Down...Brown - Turn the House Lights Down...
» » William Parker / Cecil Taylor - The Dance Project
William Parker / Cecil Taylor - The Dance Project album download
Title:

William Parker / Cecil Taylor - The Dance Project album download

Performer:
William Parker / Cecil Taylor
Album:
The Dance Project
Style:
Modern Creative
Genre:
Duration:
39:16
MP3 archive size:
1659 mb
FLAC archive size:
1748 mb
Other formats:
ADX RA VOX APE FLAC ASF
Rating:
4.7
Votes:
560

In 2008, Germany's Free Music Production label released The Dance Project, a live recording of a multimedia performance presented by pianist poet and composer Cecil Taylor at Berlin's Akademie der Kunste on July 8, 1990. With him on this occasion were a group of dancers and two uncommonly creative musicians. Bassist William Parker's achievements as multi-instrumental leader of creative improvisatory ensembles earned him international acclaim at the turn of the 20th and 21st centuries

Visit Cecil Taylor, William Parker and Masashi Harada on the web. Track Listing: Astral Fluid on the Earth: Looking Into the Universe; Emerging from the Cosmic Exterial; Soul Activities: Feeling; Willing. Personnel: Cecil Taylor: piano; William Parker: bass; Masashi Harada: percussion. Title: CT: The Dance Project Year Released: 2009 Record Label: FMP Records.

Nefertiti, The Beautiful One Has Come.

Dance Project (1990) 2 - Emerging from the Cosmic Exterial. wav" WAVE TRACK 02 AUDIO TITLE "Emerging from the Cosmic Exterial" PERFORMER "Cecil Taylor" FLAGS DCP INDEX 01 00:00:00 FILE "Cecil Taylor - The Dance Project (1990) 3 - Feeling. wav" WAVE TRACK 03 AUDIO TITLE "Feeling" PERFORMER "Cecil Taylor" FLAGS DCP INDEX 01 00:00:00 FILE "Cecil Taylor - The Dance. Project (1990) 4 - Willing. wav" WAVE TRACK 04 AUDIO TITLE "Willing" PERFORMER "Cecil Taylor" FLAGS DCP INDEX 01 00:00:00  . Cecil Taylor - piano; William Parker - double bass; Masashi Harada - percussion. Скачивание доступно после регистрации!! Приватный

CT: The Dance Project by CECIL TAYLOR, released 28 August 2008 1. Looking into the Universe 2. Emerging from the Cosmic Exterial 3. Feeling 4. Willing All music composed by Cecil Taylor. The Dance Project is a trio recording from Berlin in 1990, where Taylor was joined by William Parker on bass and Masashi Harada on percussion to accompany four dancers. The performance opens with a chanted recitation of poetry interrupted by shouts and yells. Taylor plays quietly, with delicate fragments that evolve into clusters and crashes filled with urgency and power

Evan Parker, Cecil Taylor, Barry Guy & Tony Oxley Nailed Last. Cecil Taylor,William Parker,Tony Oxley Third Part: Looking the Feel Trio. Evan Parker, Cecil Taylor, Barry Guy & Tony Oxley Nailed First. Barry Guy,Cecil Taylor,William Parker,Tony Oxley Last. phyllis nelson in a cadillac. aerostep1 135 bpm. muzmo ru неангелы. karizma tech this out atjazz remix. the second whorl drop the bomb. radio djays levithar.

William Parker: Double Bass Cecil Taylor: Piano Masashi Harada: Percussion Bert Noglik: Liner Notes Jonas Bergler: Mastering, Mixing Jost Gebers: Producer, Recording. View All . Dig-Deeper. Silent Tongues (LP) Cecil Taylor. New York City R&B (LP) Cecil Taylor. The Complete Nat Hentoff Sessions (CD) Cecil Taylor. Complete Live At The Cafe Montmartre (CD) Cecil Taylor. Michigan State University, April 15th 1976 (LP) Cecil Taylor. The Last Dance Vol. 1 (CD) Cecil Taylor. Emerging from the Cosmic Exterial. Cecil Taylor, William Parker, Masashi Harada.

The World Of Cecil Taylor 2012. Conquistador (Reissued 1987) 1966. Silent Tongues (Live) (Remastered 2001) 1974. Looking Ahead! (Reissued 1990) 1958. The World Of Cecil Taylor (Vinyl) 1960. The Willisau Concert 2002. The Great Paris Concert 1994. The Hearth (With Tristan Honsinger & Evan Parker) 1988. 1. Looking Into The Universe. 2.

Live in Vienna is a live album by Cecil Taylor recorded in Vienna on November 7, 1987 and released on the Leo label. The album features a concert performance by Taylor with Thurman Barker, William Parker, Carlos Ward and Leroy Jenkins.

Track List

Title/Composer Performer Time
1 Looking Into the Universe Cecil Taylor William Parker / Cecil Taylor feat: Masashi Harada 11:00
2 Emerging from the Cosmic Exterial Cecil Taylor William Parker / Cecil Taylor feat: Masashi Harada 4:19
3 Feeling Cecil Taylor William Parker / Cecil Taylor feat: Masashi Harada 12:12
4 Willing Cecil Taylor William Parker / Cecil Taylor feat: Masashi Harada 11:45