Patrizius - Ich Bin Dein FreundPatrizius - Ich Bin Dein Freund Renato Velasco - Brazilian GuitarRenato Velasco - Brazilian Guitar Le Mans - Rebel ActionLe Mans - Rebel Action Trajik Blu - Da StreetzTrajik Blu - Da Streetz Jamie xx / Gil Scott-Heron - I'll Take Care of YouJamie xx / Gil Scott-Heron - I'll Take Care of You Charles Mingus - Lock Em UpCharles Mingus - Lock Em Up Various Artists - Now That's What I Call Music! 39 [UK]Various Artists - Now That's What I Call Music! 39 [UK] Angelina Reaux - Stranger Here Myself: Songs of Kurt WeillAngelina Reaux - Stranger Here Myself: Songs of Kurt Weill
» » Cleo Laine - Young at Heart
Cleo Laine - Young at Heart album download
Title:

Cleo Laine - Young at Heart album download

Performer:
Cleo Laine
Album:
Young at Heart
Style:
Vocal Pop
Genre:
MP3 archive size:
1879 mb
FLAC archive size:
1142 mb
Other formats:
TTA MP3 AIFF XM DTS MOD
Rating:
4.4
Votes:
723

Album: Ebb Tide: Romantic Moments From The '50s. Download Cleo Laine - Young at Heart. Ebb Tide: Romantic Moments From The '50s: Best 2 songs. Cleo Laine - Life Is A Wheel Johnny Dankworth, Let's Slip Away - Film And TV 1960 - 1973, 2009 02:49. Cleo Laine, John Dankworth - I Almost Lost My Mind Themes and Variations, Vol. 2, 2013 03:04.

Опубликовано: 5 апр. 2014 г. From the album Cleo Laine ‎- "Cleo Laine Live!!! At Carnegie Hall" 1974-LP-33rpm (Side-A). A1 Intro, I Know Where I'm Going A2 Music A3 Wish You Were Here (I Do Miss You) A4 Gimme a Pig Foot & A Bottle of Beer A5 You Must Believe in Spring (Maxence's Song From "The Young Girls of Rochefort") A6 Perdido A7 Control Yourself. Gimme A Pig Foot and A Bottle Of Beer.

Don't you know that its worth every treasure on earth To be young at heart For as rich as you are its much better by far To be young at heart. And if you should survive to a hundred and five Look at all you'll derive out of being alive And here is the best part, you have a head start If you are among the very young at heart. Date Added: 2017-08-25.

Dame Cleo Laine, Lady Dankworth, DBE, is a jazz singer and an actress, noted for her scat singing and great vocal range. Though her natural range is that of a contralto, she is able to produce a "G above high C" giving her an overall compass of well over three octaves. She is the only female performer to have received Grammy nominations in the jazz, popular and classical music categories.

Album: All Of Me. Genre: Jazz. Cleo Laine & John Williams – Let The Music Take You (2018).

Lyrics to Young at Heart by Cleo Laine from the Let's Be Frank: A Tribute to Sinatra album - including song video, artist biography, translations and more! . Don't you know that its worth every treasure on earth To be young at heart For as rich as you are its much better by far To be young at heart. Become A Better Singer In Only 30 Days, With Easy Video Lessons! Sheet Music Playlist.

0. To The Top. Contribute to Cleo Laine.

Cleo Laine - All Members 06:44. Cleo Laine - Just Once More 03:38. Cleo Laine - You're Blase 03:01. Cleo Laine - I Don't Want to Set the World on Fire 02:54. Cleo Laine - I Can Dream Can't I 02:58. Cleo Laine - Little Girl Baby 01:57. Cleo Laine - I've Got My Love to Keep Me Warm 01:52. Cleo Laine - I'm on a See-Saw 02:49. Cleo Laine - Young and Foolish 07:54. Cleo Laine - You've Done Something to My Heart 03:36. Cleo Laine - I Will Miss You 04:31. Cleo Laine - I Loved a Man 02:31.

Cleo Laine - Cleo's Choice Жанр: Vocal Jazz Страна-производитель диска: USA Год издания: 1993 Издатель (лейбл): GNP, Crescendo Records Номер по каталогу: GNPD 9024 Страна: UK Аудиокодек: FLAC . lac) Тип рипа: image+. cue Битрейт аудио: lossless Продолжительность: 47:13 Источник (релизер): собственный рип Наличие сканов в содержимом раздачи: да Треклист: 1. Something's Gotta Give Johnny Mercer 4:04 2. Unforgettable Irving. TITLE "Young at Heart" PERFORMER "Cleo Laine" ISRC 000000000000 INDEX 00 22:53:34 INDEX 01 22:54:70 TRACK 09 AUDIO TITLE "He Needs Me" PERFORMER "Cleo Laine" ISRC 000000000000 INDEX 00 26:38:10 INDEX 01 26:39:17 TRACK 10 AUDIO TITLE "Summer is Comming" PERFORMER "Cleo Laine" ISRC 000000000000 INDEX 00 30:24:54 INDEX 01 30:27:42.