David Wilson - David Wilson's Attain Perfect Health Guided MeditationDavid Wilson - David Wilson's Attain Perfect Health Guided Meditation Bruno Mars - It Will RainBruno Mars - It Will Rain Falling Martins - Live at the Old Rock HouseFalling Martins - Live at the Old Rock House Xgovernment - Futuristic B/W Spread LoveXgovernment - Futuristic B/W Spread Love Paul Van Kemenade - Kaisei NariPaul Van Kemenade - Kaisei Nari Bix - The NorthBix - The North Luckyiam - Most Likely to SucceedLuckyiam - Most Likely to Succeed Corona 2 - Estamos Haciendo la Mejor CumbiaCorona 2 - Estamos Haciendo la Mejor Cumbia
» » Embryo - Hallo Mik
Embryo - Hallo Mik album download
Title:

Embryo - Hallo Mik album download

Performer:
Embryo
Album:
Hallo Mik
Style:
Art Rock,Jazz-Rock
Genre:
MP3 archive size:
1932 mb
FLAC archive size:
1785 mb
Other formats:
ADX DXD MP2 AA MP4 MMF
Rating:
4.2
Votes:
491

Embryo Related artists. EMBRYO - Hallo Mik 2003/Embryo - Hallo Mik/Embryo - 2003 Hallo Mik - front. EMBRYO - Hallo Mik 2003/Embryo - Hallo Mik/back(b). EMBRYO - Hallo Mik 2003/Embryo - Hallo Mik/back(a). EMBRYO - Hallo Mik 2003/Embryo - Hallo Mik/thumb2.

Embryo, Hallo Mik - Live Recordings 2002-2003 Жанр: Kraut-rock, Ethnic Fusion Дата записи: 2002-2003 Дата выпуска: 2003 Производитель диска, страна: Schneeball/Indigo, 24462-5, Germany Тип: Live Album Аудио кодек: FLAC Тип рипа: (tracks . ue) Включает: Full artwork Продолжительность: 68:28 Источник, рип: what. cd() Трэклист: 1. Chobasti (9:55) 2. Donau (10:04) 3. Hallo Mik (1:46) 4. Karakorum. Mi. av" WAVE TRACK 03 AUDIO TITLE "Hallo Mik" PERFORMER "Embryo" INDEX 01 00:00:00 FILE "04 - Karakorum. wav" WAVE TRACK 04 AUDIO TITLE "Karakorum" PERFORMER "Embryo" INDEX 01 00:00:00 FILE "05 - Mering. wav" WAVE TRACK 05 AUDIO TITLE "Mering" PERFORMER "Embryo" INDEX 01 00:00:00 FILE "06 - Peking Dada. wav" WAVE TRACK 06 AUDIO TITLE "Peking Dada" PERFORMER.

Only for completionists (0%).

On this page you can not listen to mp3 music free or download album or mp3 track to your PC, phone or tablet. All materials are provided for educational purposes. Jazz music Rock music Folk, World, & Country music. Released at: This album was released on the label Schneeball (catalog number Indigo 24462-5). This album was released in 2004 year. Format of the release is. CD, Album. The album included the following session artists

Hallo Mik is a world fusion music live album recording by EMBRYO released in 2003 on CD, LP/Vinyl and/or cassette. Filed under World Fusion By EMBRYO. 1 Chobasti 9:55 2 Donau 10:04 3 Hallo Mik 1:46 4 Karakorum 4:47 5 Mering 4:51 6 Peking Dada 6:52 7 Space 8:58 8 4c 11:49 9 Shubudibap 5:15 10 Taisho 4:03 11 Mataro 4:08.

Donau 03. Hallo Mik 04. Karakorum 05. Mering 06. Peking Dada 07. Space 08. 4 C 09. Shubudibap 1. Embryo, Hallo Mik. Used drive : PIONEER DVD-RW DVR-112D Adapter: 0 ID: 0. Read mode : Secure Utilize accurate stream : Yes Defeat audio cache : Yes Make use of C2 pointers : No. Read offset correction : 48 Overread into Lead-In and Lead-Out : No Fill up missing offset samples with silence : Yes Delete leading and trailing silent blocks : No Null samples used in CRC calculations : Yes Used interface : Native Win32 interface for Win NT & 2000 Gap handling : Appended to previous track.